extratorrent - A Fan Made Alternative Login   |   Register
Important Information
Registrations are open now
-------------------------------------

Please click here to register with Extratorrent2 to recieve latest updates, add bookmarks and to post comments.

Friends
Friends

1) ProxyFix

Extratorrent2 > Categories > Movies > Iqbal 2005 Hindi 720p Blu-Ray x264 AAC ( TaRa ).mkv torrent


Browse Movies torrents

Iqbal 2005 Hindi 720p Blu-Ray x264 AAC ( TaRa ).mkv torrent


Download torrent: Download Iqbal 2005 Hindi 720p Blu-Ray x264 AAC ( TaRa ).mkv torrent Magnet link Bookmark Torrent: Iqbal 2005 Hindi 720p Blu-Ray x264 AAC ( TaRa ).mkv   Iqbal 2005 Hindi 720p Blu-Ray x264 AAC ( TaRa ).mkv torrent
Info hash: C1E01DD5124994D795A4416F188E9F0B71FB572E
Category: Categories > Movies
Trackers:
View all torrent trackers >
Health:
 seeds: 21 ,  leechers: 11 |  Update >
Torrent language: Hindi Hindi
Total Size: 701.8 MB
Files List:
5    View torrent files >
Uploader:
SkTara
Torrent added: July 25, 2018, 10:13 pm
Tags: Iqbal, 2005, Drama, Sport
Users rating: ---, not rated. please login to rate.

Download Iqbal 2005 Hindi 720p Blu-Ray x264 AAC ( TaRa ).mkv torrent



Torrent Description


Iqbal 2005 Hindi 720p Blu-Ray x264 AAC ( TaRa ).mkv


===================================================================
General
Complete name : Iqbal 2005 Hindi 720p Blu-Ray x264 AAC ( TaRa ).mkv
Format : Matroska
Format version : Version 4 / Version 2
File size : 702 MiB
Duration : 2h 6mn
Overall bit rate : 775 Kbps
===================================================================
Video
ID : 1
Format : AVC
Format/Info : Advanced Video Codec
Format profile :
Format settings, CABAC : Yes
Format settings, ReFrames : 4 frames
Codec ID : V_MPEG4/ISO/AVC
Duration : 2h 6mn
Bit rate : 731 Kbps
Width : 1 280 pixels
Height : 544 pixels
Display aspect ratio : 2.35:1
Original display aspect rat : 2.35:1
Frame rate mode : Constant
Frame rate : 25.000 fps
Color space : YUV
Chroma subsampling : 4:2:0
Bit depth : 8 bits
Scan type : Progressive
Bits/(Pixel*Frame) : 0.042
Stream size : 662 MiB (94%)
Title : .....::::: TaRa ::::::....
Language : Hindi
Default : Yes
Forced : No
===================================================================
Audio
ID : 2
Format : AAC
Format/Info : Advanced Audio Codec
Format profile : HE-AAC / LC
Codec ID : A_AAC
Duration : 2h 6mn
Bit rate : 42.0 Kbps
Channel(s) : 2 channels
Channel positions : Front: L R
Sampling rate : 48.0 KHz / 24.0 KHz
Frame rate : 23.438 fps (1024 spf)
Compression mode : Lossy
Delay relative to video : 31ms
Stream size : 38.0 MiB (5%)
Title : .....::::: TaRa ::::::....
Language : Hindi
Default : Yes
Forced : No
===================================================================










































Download Iqbal 2005 Hindi 720p Blu-Ray x264 AAC ( TaRa ).mkv torrent


Related Torrents

Added  Size  Health
Download Magnet link Browse Movies torrent Iqbal 2005 Hindi 720p HDTV Rip CharmeLeon Silver RG in Movies - h.264/x264, by
CharmeLeon
6y 703.8 MB 0 1
Download Magnet link Browse Movies torrent Iqbal 2005 Hindi XVID 950MB DaXclusives in Movies - DVD, by
aapka1dost
8y 950.2 MB 1 1



Comments   (please login to add your comment!)

step sister sex     raylene     mega machines     big booty bella     weltklasse arsche     cell 2016     3d 1080p bluray dual audio     2014     mac media     penelope     heroes 2006 season     civil war tigole     720p blu     the chaser     blindspot eng     lingerie surprise for her boyfriend     soliel marks     beauty teen     telugu 2016     some freaks     sharemybf cory uma     hypnotics     seducing sierra     fast seven     


Home - Browse Torrents

Made with love by an Extratorrent Fan!