extratorrent - A Fan Made Alternative Login   |   Register
Important Information
Registrations are open now
-------------------------------------

Please click here to register with Extratorrent2 to recieve latest updates, add bookmarks and to post comments.

Friends
Friends

1) ProxyFix

Extratorrent2 > Categories > Movies > Letters to Santa 2011 [Blu-ray 720p HEVC x265 6CH ENG Subs] - Venom torrent


Browse Movies torrents

Letters to Santa 2011 [Blu-ray 720p HEVC x265 6CH ENG Subs] - Venom torrent


Download torrent: Download Letters to Santa 2011 [Blu-ray 720p HEVC x265 6CH ENG Subs] - Venom torrent Magnet link Bookmark Torrent: Letters to Santa 2011 [Blu-ray 720p HEVC x265 6CH ENG Subs] - Venom   Letters to Santa 2011 [Blu-ray 720p HEVC x265 6CH ENG Subs] - Venom torrent
Info hash: 6DC1EA638E861AE710D6EAB87A51BFF824487EE5
Category: Categories > Movies
Trackers:
View all torrent trackers >
Health:
 seeds: 0 ,  leechers: 1 |  Update >
Torrent language: Polish Polish
Total Size: 2.1 GB
Files List:
1    View torrent files >
Uploader:
miszczkurde
Torrent added: June 24, 2018, 2:31 am
Tags: letters, to, m, listy, do, 2011, christmas
Users rating: ---, not rated. please login to rate.

Download Letters to Santa 2011 [Blu-ray 720p HEVC x265 6CH ENG Subs] - Venom torrent



Torrent Description




IMDb

Movie Info
Over the years women have been crying together with Bridget Jones and falling in love with Hugh Grant. Now the time has come for 'Letters to Santa' to introduce a new dimension of romantic comedy where behind hilarious scenes there's deeper universal truth. It is an enchanting story taking place on this special day in a year when five men and five women in their slightly tangled lives are truly finding out that there is absolutely no escape from love and...Christmas. Letters to Santa' has drawn record audiences to the cinemas all over the country, attracting almost 400,000 viewers just on the opening weekend and making it the third best result in the course of the last 20 years! Mikolaj works for a popular radio station. On Christmas Eve he gets an on-air phone call from Doris, frustrated and complaining about the lack of love in her life. To cheer her up, Mikolaj tells her a beautiful story. Little do they know that this phone call is going to change their lives. Shortly after that...

Original title: "Listy do M."
Genre: Comedy, Romance, Christmas
Directed By: Mitja Okorn
Written By: Sam Akina, Marcin Baczynski, Karolina Szablewska
Release date: Nov 2011
Country: Poland
Runtime: 1h 51min
Studio: © 2011 TVN Film

Code:

General
Format: Matroska
File size: 2.05 GiB
Duration: 1 h 51 min
Overall bit rate: 2 625 kb/s

Video
ID: 1
Format: HEVC
Duration: 1 h 51 min
Bit rate: 1 933 kb/s
Width: 1 280 pixels
Height: 720 pixels
Display aspect ratio: 16:9
Frame rate: 25.000 FPS
CBit depth: 10 bits
Stream size: 1.51 GiB (74%)
Language: Polish
Default: Yes

Audio
ID: 2
Format: AC-3
Format/Info: Audio Coding 3
Codec ID: A_AC3
Duration: 1 h 51 min
Bit rate: 640 kb/s
Channel(s): 6 channels
Channel positions: Front: L C R, Side: L R, LFE
Sampling rate: 48.0 kHz
Stream size: 512 MiB (24%)
Language: Polish
Default: Yes

Text
ID: 3
Format: UTF-8
Language: English
Default: Yes

Text
ID: 4
No subtitles
Default: No



Screenshots: (To download images, click image. Right click and select 'save image as...')










Download Letters to Santa 2011 [Blu-ray 720p HEVC x265 6CH ENG Subs] - Venom torrent


Related Torrents


Comments   (please login to add your comment!)

720p blu     hindi web series     open water     cars 3     shetland s04e01     kasperky     sakurai     cute pepper     vintage     private xtreme     linda weasley katti gold     bay     nerve hindi     uma jolie pawn     never squirted before     indian busty     iron man 720p dual audio     med     lektor     alex     sexart house     blackedraw hime marie     milfhunter lezley zen man eater     legends of tomorrow s01e04     


Home - Browse Torrents

Made with love by an Extratorrent Fan!