extratorrent - A Fan Made Alternative Login   |   Register
Important Information
Registrations are open now
-------------------------------------

Please click here to register with Extratorrent2 to recieve latest updates, add bookmarks and to post comments.

Friends
Friends

1) ProxyFix

Extratorrent2 > Categories > Movies > Udaan 2010 Hindi 720p Blu-Ray x264 AAC Esub ( TaRa ).mkv torrent


Browse Movies torrents

Udaan 2010 Hindi 720p Blu-Ray x264 AAC Esub ( TaRa ).mkv torrent


Download torrent: Download Udaan 2010 Hindi 720p Blu-Ray x264 AAC Esub ( TaRa ).mkv torrent Magnet link Bookmark Torrent: Udaan 2010 Hindi 720p Blu-Ray x264 AAC Esub ( TaRa ).mkv   Udaan 2010 Hindi 720p Blu-Ray x264 AAC Esub ( TaRa ).mkv torrent
Info hash: 79E0D74E17D9131AE2587FBD3DD4F5B7E80C7960
Category: Categories > Movies
Trackers:
View all torrent trackers >
Health:
 seeds: 11 ,  leechers: 9 |  Update >
Torrent language: Hindi Hindi
Total Size: 728.7 MB
Files List:
5    View torrent files >
Uploader:
SkTara
Torrent added: August 24, 2018, 4:00 pm
Tags: Udaan, 2010, Drama
Users rating: ---, not rated. please login to rate.

Download Udaan 2010 Hindi 720p Blu-Ray x264 AAC Esub ( TaRa ).mkv torrent



Torrent Description


Udaan 2010 Hindi 720p Blu-Ray x264 AAC Esub ( TaRa ).mkv


===================================================================
General
Complete name : Udaan 2010 Hindi 720p Blu-Ray x264 AAC Esub ( TaRa ).mkv
Format : Matroska
Format version : Version 4 / Version 2
File size : 729 MiB
Duration : 2h 17mn
Overall bit rate : 740 Kbps
===================================================================
Video
ID : 1
Format : AVC
Format/Info : Advanced Video Codec
Format profile :
Format settings, CABAC : Yes
Format settings, ReFrames : 5 frames
Codec ID : V_MPEG4/ISO/AVC
Duration : 2h 17mn
Bit rate : 640 Kbps
Width : 846 pixels
Height : 360 pixels
Display aspect ratio : 2.35:1
Frame rate mode : Constant
Frame rate : 23.976 fps
Color space : YUV
Chroma subsampling : 4:2:0
Bit depth : 8 bits
Scan type : Progressive
Bits/(Pixel*Frame) : 0.088
Stream size : 631 MiB (87%)
Title : .....::::: TaRa ::::::.....
Language : Hindi
Default : Yes
Forced : No
===================================================================
Audio
ID : 2
Format : AAC
Format/Info : Advanced Audio Codec
Format profile : LC
Codec ID : A_AAC
Duration : 2h 17mn
Bit rate : 96.0 Kbps
Channel(s) : 2 channels
Channel positions : Front: L R
Sampling rate : 48.0 KHz
Frame rate : 46.875 fps (1024 spf)
Compression mode : Lossy
Delay relative to video : -21ms
Stream size : 95.1 MiB (13%)
Title : .....::::: TaRa ::::::.....
Language : Hindi
Default : Yes
Forced : No
===================================================================
Text
ID : 3
Format : UTF-8
Codec ID : S_TEXT/UTF8
Codec ID/Info : UTF-8 Plain Text
Duration : 2h 13mn
Bit rate : 36 bps
Count of elements : 1374
Stream size : 35.6 KiB (0%)
Title : .....::::: TaRa ::::::.....
Language : Hindi
Default : Yes
Forced : No
===================================================================





































Download Udaan 2010 Hindi 720p Blu-Ray x264 AAC Esub ( TaRa ).mkv torrent


Related Torrents


Comments   (please login to add your comment!)

teacher     fear the walking dead s01e04     darkx sovereign syre     the stanford prison experiment 2015     phase one     take off the flight simulator     agal bagal     huge ass on the white girl that gets fucked     aws udemy     client timide     guardians of     misha     comple     rocked by cock     catch     forex ea     082416     uncensored japanese     rally     antony     morya     foot fuck     city     rogue like evolution     


Home - Browse Torrents

Made with love by an Extratorrent Fan!