extratorrent - A Fan Made Alternative Login   |   Register
Important Information
Registrations are open now
-------------------------------------

Please click here to register with Extratorrent2 to recieve latest updates, add bookmarks and to post comments.

Friends
Friends

1) ProxyFix

Extratorrent2 > Categories > Movies > Avengers Infinity War (2018) 720p Proper Blu-Ray x264 ESubs - HQ Line Audios [Hindi + Telugu + Tamil + Eng]- 1.7GB [MovCr] torrent


Browse Movies torrents

Avengers Infinity War (2018) 720p Proper Blu-Ray x264 ESubs - HQ Line Audios [Hindi + Telugu + Tamil + Eng]- 1.7GB [MovCr] torrent


Avengers: Infinity War (2018)
Name: Avengers: Infinity War
Released Year: 2018
Runtime: 149 mins
Gener: Action, Adventure, Fantas
Director: Anthony Russo|Joe Russo
Country: USA
IMDB Rating: 8.8/10
Plot: The Avengers and their allies must be willing to sacrifice all in an attempt to defeat the powerful Thanos before his blitz of devastation and ruin puts an end to the universe.

Download torrent: Download Avengers Infinity War (2018) 720p Proper Blu-Ray x264 ESubs - HQ Line Audios [Hindi + Telugu + Tamil + Eng]- 1.7GB [MovCr] torrent Magnet link Bookmark Torrent: Avengers Infinity War (2018) 720p Proper Blu-Ray x264 ESubs - HQ Line Audios [Hindi + Telugu + Tamil + Eng]- 1.7GB [MovCr]   Avengers Infinity War (2018) 720p Proper Blu-Ray x264 ESubs - HQ Line Audios [Hindi + Telugu + Tamil + Eng]- 1.7GB [MovCr] torrent
Info hash: 84CFAF16D0FAC98F508D313D9037D9D8595C6CCE
Category: Categories > Movies
Trackers:
View all torrent trackers >
Health:
 seeds: 79 ,  leechers: 126 |  Update >
Torrent language: Hindi Hindi
Total Size: 1.7 GB
Files List:
1    View torrent files >
Uploader:
ictv
Torrent added: August 1, 2018, 3:37 pm
Tags: "Action", "Adventure", "Sci-Fi", "Fantacy"
IMDB: http://www.imdb.com/title/tt4154756
Users rating: ---, not rated. please login to rate.

Download Avengers Infinity War (2018) 720p Proper Blu-Ray x264 ESubs - HQ Line Audios [Hindi + Telugu + Tamil + Eng]- 1.7GB [MovCr] torrent



Torrent Description

Visit Our Site  www.movcr.com



Avengers Infinity War (2018) 720p Proper Blu-Ray x264 ESubs - HQ Line Audios [Hindi + Telugu + Tamil + Eng]- 1.7GB [MovCr]

Plot :
The Avengers and their allies must be willing to sacrifice all in an attempt to defeat the powerful Thanos before his blitz of devastation and ruin puts an end to the universe.



http://www.imdb.com/title/tt4154756/




General
Unique ID                                : 294766641217342624924050492704835853042 (0xDDC1FD76B6F801F9F78FAA83C86D5AF2)
Complete name                            : [www.Movcr.com] - Avengers Infinity War (2018) 720p Proper Blu-Ray x264 ESubs - HQ Line Audios [Hindi + Telugu + Tamil + Eng]- 1.7GB [MovCr].mkv
Format                                   : Matroska
Format version                           : Version 4 / Version 2
File size                                : 1.73 GiB
Duration                                 : 2 h 29 min
Overall bit rate                         : 1 661 kb/s
Movie name                               : www.MovCr.com
Encoded date                             : UTC 2018-08-01 09:48:25
Writing application                      : mkvmerge v23.0.0 ('The Bride Said No') 64-bit
Writing library                          : libebml v1.3.6 + libmatroska v1.4.9

Video
ID                                       : 1
Format                                   : AVC
Format/Info                              : Advanced Video Codec
Format profile                           :
Format settings                          : CABAC / 4 Ref Frames
Format settings, CABAC                   : Yes
Format settings, RefFrames               : 4 frames
Codec ID                                 : V_MPEG4/ISO/AVC
Duration                                 : 2 h 29 min
Bit rate                                 : 1 050 kb/s
Width                                    : 1 280 pixels
Height                                   : 534 pixels
Display aspect ratio                     : 2.40:1
Original display aspect ratio            : 2.40:1
Frame rate mode                          : Constant
Frame rate                               : 23.976 (24000/1001) FPS
Color space                              : YUV
Chroma subsampling                       : 4:2:0
Bit depth                                : 8 bits
Scan type                                : Progressive
Bits/(Pixel*Frame)                       : 0.064
Stream size                              : 1.10 GiB (63%)
Title                                    : www.MovCr.com
Writing library                          : x264 core 155
Encoding settings                        : cabac=1 / ref=4 / deblock=1:-1:-1 / analyse=0x3:0x133 / me=umh / subme=9 / psy=1 / psy_rd=1.00:0.15 / mixed_ref=1 / me_range=24 / chroma_me=1 / trellis=2 / 8x8dct=1 / cqm=0 / deadzone=21,11 / fast_pskip=0 / chroma_qp_offset=-3 / threads=17 / lookahead_threads=1 / sliced_threads=0 / nr=0 / decimate=1 / interlaced=0 / bluray_compat=0 / constrained_intra=0 / bframes=3 / b_pyramid=2 / b_adapt=2 / b_bias=0 / direct=3 / weightb=1 / open_gop=0 / weightp=2 / keyint=250 / keyint_min=23 / scenecut=40 / intra_refresh=0 / rc_lookahead=60 / rc=2pass / mbtree=1 / bitrate=1050 / ratetol=1.0 / qcomp=0.60 / qpmin=0 / qpmax=69 / qpstep=4 / cplxblur=20.0 / qblur=0.5 / vbv_maxrate=31250 / vbv_bufsize=31250 / nal_hrd=none / filler=0 / ip_ratio=1.40 / aq=1:1.00
Default                                  : Yes
Forced                                   : No

Audio #1
ID                                       : 2
Format                                   : MPEG Audio
Format version                           : Version 1
Format profile                           : Layer 3
Format settings                          : Joint stereo / MS Stereo
Codec ID                                 : A_MPEG/L3
Codec ID/Hint                            : MP3
Duration                                 : 2 h 29 min
Bit rate mode                            : Constant
Bit rate                                 : 128 kb/s
Channel(s)                               : 2 channels
Sampling rate                            : 48.0 kHz
Frame rate                               : 41.667 FPS (1152 SPF)
Compression mode                         : Lossy
Stream size                              : 137 MiB (8%)
Title                                    : www.MovCr.com
Writing library                          : LAME3.99r
Encoding settings                        : -m j -V 4 -q 3 -lowpass 17 -b 128
Language                                 : Tamil
Default                                  : No
Forced                                   : No

Audio #2
ID                                       : 3
Format                                   : MPEG Audio
Format version                           : Version 1
Format profile                           : Layer 3
Format settings                          : Joint stereo / MS Stereo
Codec ID                                 : A_MPEG/L3
Codec ID/Hint                            : MP3
Duration                                 : 2 h 29 min
Bit rate mode                            : Constant
Bit rate                                 : 128 kb/s
Channel(s)                               : 2 channels
Sampling rate                            : 48.0 kHz
Frame rate                               : 41.667 FPS (1152 SPF)
Compression mode                         : Lossy
Stream size                              : 137 MiB (8%)
Title                                    : www.MovCr.com
Writing library                          : LAME3.99r
Encoding settings                        : -m j -V 4 -q 3 -lowpass 17 -b 128
Language                                 : Telugu
Default                                  : No
Forced                                   : No

Audio #3
ID                                       : 4
Format                                   : MPEG Audio
Format version                           : Version 1
Format profile                           : Layer 3
Format settings                          : Joint stereo / MS Stereo
Codec ID                                 : A_MPEG/L3
Codec ID/Hint                            : MP3
Duration                                 : 2 h 29 min
Bit rate mode                            : Constant
Bit rate                                 : 128 kb/s
Channel(s)                               : 2 channels
Sampling rate                            : 48.0 kHz
Frame rate                               : 41.667 FPS (1152 SPF)
Compression mode                         : Lossy
Stream size                              : 137 MiB (8%)
Title                                    : www.MovCr.com
Writing library                          : LAME3.99r
Encoding settings                        : -m j -V 4 -q 3 -lowpass 17 -b 128
Language                                 : Hindi
Default                                  : Yes
Forced                                   : Yes

Audio #4
ID                                       : 5
Format                                   : AAC
Format/Info                              : Advanced Audio Codec
Format profile                           : LC
Codec ID                                 : A_AAC-2
Duration                                 : 2 h 29 min
Bit rate                                 : 224 kb/s
Channel(s)                               : 6 channels
Channel positions                        : Front: L C R, Side: L R, LFE
Sampling rate                            : 48.0 kHz
Frame rate                               : 46.875 FPS (1024 SPF)
Compression mode                         : Lossy
Stream size                              : 239 MiB (13%)
Title                                    : www.MovCr.com
Language                                 : English
Default                                  : No
Forced                                   : No

Text
ID                                       : 6
Format                                   : UTF-8
Codec ID                                 : S_TEXT/UTF8
Codec ID/Info                            : UTF-8 Plain Text
Duration                                 : 2 h 28 min
Bit rate                                 : 42 b/s
Count of elements                        : 1724
Stream size                              : 46.5 KiB (0%)
Title                                    : www.MovCr.com
Language                                 : English
Default                                  : No
Forced                                   : No
















Download Avengers Infinity War (2018) 720p Proper Blu-Ray x264 ESubs - HQ Line Audios [Hindi + Telugu + Tamil + Eng]- 1.7GB [MovCr] torrent


Related Torrents


Comments   (please login to add your comment!)

nunez     creation     java 8 in action 2014     devon     ihaveawife cassidy klein     720p blu     her 2013     all the money in the world     gandi baat     billy     glamour     chi     big tits a     love in     lily     lektor 2017     my big tits     complete 1     nympho     anikka albrite     word patch     2014 dvdrip     medicine     orange     


Home - Browse Torrents

Made with love by an Extratorrent Fan!