extratorrent - A Fan Made Alternative Login   |   Register
Important Information
Registrations are open now
-------------------------------------

Please click here to register with Extratorrent2 to recieve latest updates, add bookmarks and to post comments.

Friends
Friends

1) ProxyFix

Extratorrent2 > Categories > Movies > Hichki (2018) Blu-Ray 720p Hindi H.264 AAC - LatestHDMovies torrent


Browse Movies torrents

Hichki (2018) Blu-Ray 720p Hindi H.264 AAC - LatestHDMovies torrent


Download torrent: Download Hichki (2018) Blu-Ray 720p Hindi H.264 AAC - LatestHDMovies torrent Magnet link Bookmark Torrent: Hichki (2018) Blu-Ray 720p Hindi H.264 AAC - LatestHDMovies   Hichki (2018) Blu-Ray 720p Hindi H.264 AAC - LatestHDMovies torrent
Info hash: 9FA3DC79ED5DDDE3B832CA3267DA1C0AFD333A42
Category: Categories > Movies
Trackers:
View all torrent trackers >
Health:
 seeds: 39 ,  leechers: 6 |  Update >
Torrent language: Hindi Hindi
Total Size: 1.0 GB
Files List:
1    View torrent files >
Uploader:
LHDM
Torrent added: May 21, 2018, 5:12 pm
Tags: Hichki, 2018
Users rating: ---, not rated. please login to rate.

Download Hichki (2018) Blu-Ray 720p Hindi H.264 AAC - LatestHDMovies torrent



Torrent Description






[[>>SAMPLE<<]]
http://oload.stream/f/Vhhvga98e8E/vlc-record-2018-05-17-02h17m22s-LatestHDMovies___TeamSHAHID-.mp4







General
Unique ID                   : 148565296983485858667419789104799079293 (0x6FC4A2AA9AEA4EA62E4F74759AECDB7D)
Complete name               : E:\Bollywood\Hichki (2018) Blu-Ray 720p Hindi H.264 AAC - LatestHDMovies.mkv
Format                      : Matroska
Format version              : Version 4 / Version 2
File size                   : 1.02 GiB
Duration                    : 1 h 57 min
Overall bit rate            : 1 243 kb/s
Movie name                  : LatestHDMovies | TeamSHAHID
Encoded date                : UTC 2018-05-16 20:55:04
Writing application         : mkvmerge v23.0.0 ('The Bride Said No') 32-bit
Writing library             : libebml v1.3.6 + libmatroska v1.4.9
Cover                       : Yes
Attachments                 : Cover.jpg

Video
ID                          : 1
Format                      : AVC
Format/Info                 : Advanced Video Codec
Format profile              :
Format settings             : CABAC / 5 Ref Frames
Format settings, CABAC      : Yes
Format settings, ReFrames   : 5 frames
Codec ID                    : V_MPEG4/ISO/AVC
Duration                    : 1 h 57 min
Bit rate                    : 1 088 kb/s
Width                       : 1 280 pixels
Height                      : 532 pixels
Display aspect ratio        : 2.40:1
Frame rate mode             : Constant
Frame rate                  : 24.000 FPS
Color space                 : YUV
Chroma subsampling          : 4:2:0
Bit depth                   : 8 bits
Scan type                   : Progressive
Bits/(Pixel*Frame)          : 0.067
Stream size                 : 909 MiB (87%)
Title                       : LatestHDMovies | TeamSHAHID
Writing library             : x264 core 148 r2643 5c65704
Encoding settings           : cabac=1 / ref=5 / deblock=1:0:0 / analyse=0x3:0x113 / me=hex / subme=7 / psy=1 / psy_rd=1.00:0.00 / mixed_ref=1 / me_range=16 / chroma_me=1 / trellis=1 / 8x8dct=1 / cqm=0 / deadzone=21,11 / fast_pskip=1 / chroma_qp_offset=-2 / threads=8 / lookahead_threads=8 / sliced_threads=1 / slices=8 / nr=0 / decimate=1 / interlaced=0 / bluray_compat=0 / constrained_intra=0 / bframes=0 / weightp=2 / keyint=250 / keyint_min=24 / scenecut=40 / intra_refresh=0 / rc=abr / mbtree=0 / bitrate=1088 / ratetol=1.0 / qcomp=0.60 / qpmin=0 / qpmax=69 / qpstep=4 / ip_ratio=1.40 / aq=1:1.00
Language                    : English
Default                     : Yes
Forced                      : No

Audio
ID                          : 2
Format                      : AAC
Format/Info                 : Advanced Audio Codec
Format profile              : LC
Codec ID                    : A_AAC-2
Duration                    : 1 h 57 min
Bit rate                    : 160 kb/s
Channel(s)                  : 6 channels
Channel positions           : Front: L C R, Side: L R, LFE
Sampling rate               : 48.0 kHz
Frame rate                  : 46.875 FPS (1024 SPF)
Compression mode            : Lossy
Delay relative to video     : 9 ms
Stream size                 : 134 MiB (13%)
Title                       : LatestHDMovies | TeamSHAHID
Language                    : Hindi
Default                     : Yes
Forced                      : No


















Download Hichki (2018) Blu-Ray 720p Hindi H.264 AAC - LatestHDMovies torrent


Related Torrents


Comments   (please login to add your comment!)

lily     720p blu     lektor 2017     my big tits     complete 1     nympho     anikka albrite     word patch     2014 dvdrip     medicine     orange     fakeagent     lucy 2014     brattysis     gandi baat     xxx cuckold     maroc     claudia     anal     cars 3     fitnessrooms lady dee     little lupe     rise     capote     


Home - Browse Torrents

Made with love by an Extratorrent Fan!