extratorrent - A Fan Made Alternative Login   |   Register
Important Information
Registrations are open now
-------------------------------------

Please click here to register with Extratorrent2 to recieve latest updates, add bookmarks and to post comments.

Friends
Friends

1) ProxyFix

Extratorrent2 > Categories > Movies > The 100 S01E010 720P Blu-Ray Dual Audio [Hindi-English] x264 350MB DesireMovies.Site torrent


Browse Movies torrents

The 100 S01E010 720P Blu-Ray Dual Audio [Hindi-English] x264 350MB DesireMovies.Site torrent


Download torrent: Download The 100 S01E010 720P Blu-Ray Dual Audio [Hindi-English] x264 350MB DesireMovies.Site torrent Magnet link Bookmark Torrent: The 100 S01E010 720P Blu-Ray Dual Audio [Hindi-English] x264 350MB DesireMovies.Site   The 100 S01E010 720P Blu-Ray Dual Audio [Hindi-English] x264 350MB DesireMovies.Site torrent
Info hash: 6B9CC0CAE4F5B8903FDA1CACBDB1EB937093EFEE
Category: Categories > Movies
Trackers:
View all torrent trackers >
Health:
 seeds: 24 ,  leechers: 10 |  Update >
Torrent language: Hindi Hindi
Total Size: 348.1 MB
Files List:
1    View torrent files >
Uploader:
DESIRE123
Torrent added: July 30, 2018, 3:38 pm
Tags: DesireMovies, , Hindi, Tv, show
Users rating: ---, not rated. please login to rate.

Download The 100 S01E010 720P Blu-Ray Dual Audio [Hindi-English] x264 350MB DesireMovies.Site torrent



Torrent Description

The 100 S01E010 720P Blu-Ray Dual Audio [Hindi-English] x264 350MB DesireMovies.Site



EXUSIVE UPLOAD BY DESIREMOVIES.SITE


The 100 S01E010



POSTER




INFO





Video
ID                             : 2
Format                         : AVC
Format/Info                    : Advanced Video Codec
Format profile                 :
Format settings, CABAC         : Yes
Format settings, RefFrames     : 9 frames
Codec ID                       : V_MPEG4/ISO/AVC
Duration                       : 42 min 26 s
Bit rate                       : 934 kb/s
Width                          : 1 280 pixels
Height                         : 720 pixels
Display aspect ratio           : 16:9
Frame rate mode                : Constant
Frame rate                     : 23.976 (24000/1001) FPS
Color space                    : YUV
Chroma subsampling             : 4:2:0
Bit depth                      : 8 bits
Scan type                      : Progressive
Bits/(Pixel*Frame)             : 0.042
Stream size                    : 283 MiB (81%)
Title                          : DesireMovies.Site
Default                        : Yes
Forced                         : No

Audio #1
ID                             : 1
Format                         : MPEG Audio
Format version                 : Version 1
Format profile                 : Layer 3
Mode                           : Joint stereo
Mode extension                 : MS Stereo
Codec ID                       : A_MPEG/L3
Codec ID/Hint                  : MP3
Duration                       : 42 min 27 s
Bit rate mode                  : Constant
Bit rate                       : 160 kb/s
Channel(s)                     : 2 channels
Sampling rate                  : 48.0 kHz
Frame rate                     : 41.667 FPS (1152 SPF)
Compression mode               : Lossy
Stream size                    : 48.6 MiB (14%)
Title                          : DesireMovies.Site
Writing library                : LAME3.98.2
Language                       : Hindi
Default                        : Yes
Forced                         : Yes

Audio #2
ID                             : 3
Format                         : AAC
Format/Info                    : Advanced Audio Codec
Format profile                 : HE-AAC / LC
Codec ID                       : A_AAC
Duration                       : 42 min 27 s
Bit rate                       : 50.7 kb/s
Channel(s)                     : 2 channels
Channel positions              : Front: L R
Sampling rate                  : 48.0 kHz / 24.0 kHz
Frame rate                     : 23.438 FPS (1024 SPF)
Compression mode               : Lossy
Delay relative to video        : 31 ms
Stream size                    : 15.4 MiB (4%)
Title                          : DesireMovies.Site
Language                       : English
Default                        : No
Forced                         : No

Text #1
ID                             : 4
Format                         : UTF-8
Codec ID                       : S_TEXT/UTF8
Codec ID/Info                  : UTF-8 Plain Text
Duration                       : 15 s 0 ms
Bit rate                       : 1 356 b/s
Count of elements              : 71
Stream size                    : 2.48 KiB (0%)
Title                          : DesireMovies.Site
Language                       : English
Default                        : No
Forced                         : No

Text #2
ID                             : 5
Format                         : ASS
Codec ID                       : S_TEXT/ASS
Codec ID/Info                  : Advanced Sub Station Alpha
Bit rate                       : 0 b/s
Count of elements              : 0
Compression mode               : Lossless
Stream size                    : 0.00 Byte (0%)
Default                        : Yes
Forced                         : Yes






SCREENSHOT




Keep Visit DesireMoVies.SiTe For More Exusive MoVies



Download The 100 S01E010 720P Blu-Ray Dual Audio [Hindi-English] x264 350MB DesireMovies.Site torrent




Comments   (please login to add your comment!)

fakeagent     lucy 2014     brattysis     gandi baat     xxx cuckold     720p blu     maroc     claudia     anal     cars 3     fitnessrooms lady dee     little lupe     rise     capote     czech amateur 62     shes gotta have it s01e01     lektor 2018     open water     daughters     amia miley phone     child mother     georgeuhl     watchdog     bluray hindi 2012     


Home - Browse Torrents

Made with love by an Extratorrent Fan!