extratorrent - A Fan Made Alternative Login   |   Register
Important Information
Registrations are open now
-------------------------------------

Please click here to register with Extratorrent2 to recieve latest updates, add bookmarks and to post comments.

Friends
Friends

1) ProxyFix

Extratorrent2 > Categories > Movies > Letters to Santa 3 2017 [Blu-ray 720p HEVC x265 6CH ENG Subs] - Venom torrent


Browse Movies torrents

Letters to Santa 3 2017 [Blu-ray 720p HEVC x265 6CH ENG Subs] - Venom torrent


Download torrent: Download Letters to Santa 3 2017 [Blu-ray 720p HEVC x265 6CH ENG Subs] - Venom torrent Magnet link Bookmark Torrent: Letters to Santa 3 2017 [Blu-ray 720p HEVC x265 6CH ENG Subs] - Venom   Letters to Santa 3 2017 [Blu-ray 720p HEVC x265 6CH ENG Subs] - Venom torrent
Info hash: CD78DD3F5E6E3357594B0D4364B763FFBFF34EF9
Category: Categories > Movies
Trackers:
View all torrent trackers >
Health:
 seeds: 0 ,  leechers: 1 |  Update >
Torrent language: Polish Polish
Total Size: 2.0 GB
Files List:
1    View torrent files >
Uploader:
miszczkurde
Torrent added: June 25, 2018, 4:30 pm
Tags: letters, to, m, listy, do, 2017, christmas
Users rating: ---, not rated. please login to rate.

Download Letters to Santa 3 2017 [Blu-ray 720p HEVC x265 6CH ENG Subs] - Venom torrent



Torrent Description



IMDb

Movie Info
Centered around a group of individuals, who come to experience magical moments over the course of one day. Full of the power of family, love and the spirit of forgiveness. Each individual comes to realize that Christmas, more than any other time of the year, is full of wonder and surprises.

Original title: "Listy do M. 3"
Genre: Comedy, Drama, Romance, Christmas
Directed By: Tomasz Konecki
Written By: Marcin Baczynski, Mariusz Kuczewski
Release date: Nov 2017
Country: Poland
Runtime: 1h 47min
Studio: © 2017 TVN Film

Code:

General
Format: Matroska
File size: 2.00 GiB
Duration: 1 h 47 min
Overall bit rate: 2 666 kb/s

Video
ID: 1
Format: HEVC
Duration: 1 h 47 min
Bit rate: 1 973 kb/s
Width: 1 280 pixels
Height: 536 pixels
Frame rate: 24.000 FPS
Bit depth: 10 bits
Stream size: 1.48 GiB (74%)
Language: Polish
Default: Yes

Audio
ID: 2
Format: AC-3
Duration: 1 h 47 min
Bit rate: 640 kb/s
Channel(s): 6 channels
Channel positions: Front: L C R, Side: L R, LFE
Sampling rate: 48.0 kHz
Stream size: 492 MiB (24%)
Language: Polish
Default: Yes

Text #1
ID: 3
Format: PGS
Language: English
Default: Yes

Text #2
ID: 4
Format: PGS
Language: Polish
Default: No

Text #3
ID: 5
No subtitles
Default: No



Screenshots:







Download Letters to Santa 3 2017 [Blu-ray 720p HEVC x265 6CH ENG Subs] - Venom torrent


Related Torrents


Comments   (please login to add your comment!)

2014 dvdrip     720p blu     medicine     orange     fakeagent     lucy 2014     brattysis     gandi baat     xxx cuckold     maroc     claudia     anal     cars 3     fitnessrooms lady dee     little lupe     rise     capote     czech amateur 62     shes gotta have it s01e01     lektor 2018     open water     daughters     amia miley phone     child mother     


Home - Browse Torrents

Made with love by an Extratorrent Fan!