extratorrent - A Fan Made Alternative Login   |   Register
Important Information
Registrations are open now
-------------------------------------

Please click here to register with Extratorrent2 to recieve latest updates, add bookmarks and to post comments.

Friends
Friends

1) ProxyFix

Extratorrent2 > Categories > Movies > The 100 S01 E11 720p Blu-Ray Dual Audio [HIndi-English] x264 DesireMovies.Site torrent


Browse Movies torrents

The 100 S01 E11 720p Blu-Ray Dual Audio [HIndi-English] x264 DesireMovies.Site torrent


Download torrent: Download The 100 S01 E11 720p Blu-Ray Dual Audio [HIndi-English] x264 DesireMovies.Site torrent Magnet link Bookmark Torrent: The 100 S01 E11 720p Blu-Ray Dual Audio [HIndi-English] x264 DesireMovies.Site   The 100 S01 E11 720p Blu-Ray Dual Audio [HIndi-English] x264 DesireMovies.Site torrent
Info hash: 1F784A1843E21EC0C54032F34E12DD9CFFBDD809
Category: Categories > Movies
Trackers:
View all torrent trackers >
Health:
 seeds: 37 ,  leechers: 10 |  Update >
Torrent language: Hindi Hindi
Total Size: 347.4 MB
Files List:
1    View torrent files >
Uploader:
DESIRE123
Torrent added: July 31, 2018, 3:37 pm
Users rating: ---, not rated. please login to rate.

Download The 100 S01 E11 720p Blu-Ray Dual Audio [HIndi-English] x264 DesireMovies.Site torrent



Torrent Description

The 100 S01 E11 720p Blu-Ray Dual Audio [HIndi-English] x264 DesireMovies.Site



EXCLUSIVE UPLOAD BY DESIREMOVIES.SITE


The 100 S01E011


Hindi Audio BC GOLD Million Thanks



POSTER




INFO





Video
ID                             : 2
Format                         : AVC
Format/Info                    : Advanced Video Codec
Format profile                 :
Format settings, CABAC         : Yes
Format settings, RefFrames     : 9 frames
Codec ID                       : V_MPEG4/ISO/AVC
Duration                       : 41 min 55 s
Bit rate                       : 946 kb/s
Width                          : 1 280 pixels
Height                         : 720 pixels
Display aspect ratio           : 16:9
Frame rate mode                : Constant
Frame rate                     : 23.976 (24000/1001) FPS
Color space                    : YUV
Chroma subsampling             : 4:2:0
Bit depth                      : 8 bits
Scan type                      : Progressive
Bits/(Pixel*Frame)             : 0.043
Stream size                    : 284 MiB (82%)
Title                          : DesireMovies.Site
Writing library                : x264 core 142 r2479 dd79a61
Encoding settings              : cabac=1 / ref=9 / deblock=1:-1:-1 / analyse=0x3:0x133 / me=umh / subme=10 / psy=1 / psy_rd=1.00:0.00 / mixed_ref=1 / me_range=24 / chroma_me=1 / trellis=2 / 8x8dct=1 / cqm=0 / deadzone=21,11 / fast_pskip=1 / chroma_qp_offset=-2 / threads=12 / lookahead_threads=2 / sliced_threads=0 / nr=0 / decimate=1 / interlaced=0 / bluray_compat=0 / constrained_intra=0 / bframes=8 / b_pyramid=2 / b_adapt=2 / b_bias=0 / direct=3 / weightb=1 / open_gop=0 / weightp=2 / keyint=250 / keyint_min=23 / scenecut=40 / intra_refresh=0 / rc_lookahead=60 / rc=2pass / mbtree=1 / bitrate=946 / ratetol=1.0 / qcomp=0.60 / qpmin=0 / qpmax=69 / qpstep=4 / cplxblur=20.0 / qblur=0.5 / ip_ratio=1.40 / aq=1:1.00
Default                        : Yes
Forced                         : No

Audio #1
ID                             : 1
Format                         : MPEG Audio
Format version                 : Version 1
Format profile                 : Layer 3
Mode                           : Joint stereo
Mode extension                 : MS Stereo
Codec ID                       : A_MPEG/L3
Codec ID/Hint                  : MP3
Duration                       : 41 min 56 s
Bit rate mode                  : Constant
Bit rate                       : 160 kb/s
Channel(s)                     : 2 channels
Sampling rate                  : 48.0 kHz
Frame rate                     : 41.667 FPS (1152 SPF)
Compression mode               : Lossy
Stream size                    : 48.0 MiB (14%)
Title                          : DesireMovies.Site
Writing library                : LAME3.98.2
Language                       : Hindi
Default                        : Yes
Forced                         : Yes

Audio #2
ID                             : 3
Format                         : AAC
Format/Info                    : Advanced Audio Codec
Format profile                 : HE-AAC / LC
Codec ID                       : A_AAC
Duration                       : 41 min 56 s
Bit rate                       : 50.8 kb/s
Channel(s)                     : 2 channels
Channel positions              : Front: L R
Sampling rate                  : 48.0 kHz / 24.0 kHz
Frame rate                     : 23.438 FPS (1024 SPF)
Compression mode               : Lossy
Delay relative to video        : 31 ms
Stream size                    : 15.2 MiB (4%)
Title                          : DesireMovies.Site
Language                       : English
Default                        : No
Forced                         : No

Text #1
ID                             : 4
Format                         : ASS
Codec ID                       : S_TEXT/ASS
Codec ID/Info                  : Advanced Sub Station Alpha
Bit rate                       : 0 b/s
Count of elements              : 0
Compression mode               : Lossless
Stream size                    : 0.00 Byte (0%)
Title                          : DesireMovies.Site
Language                       : English
Default                        : Yes
Forced                         : Yes

Text #2
ID                             : 5
Format                         : UTF-8
Codec ID                       : S_TEXT/UTF8
Codec ID/Info                  : UTF-8 Plain Text
Duration                       : 15 s 0 ms
Bit rate                       : 1 356 b/s
Count of elements              : 71
Stream size                    : 2.48 KiB (0%)
Title                          : PaHe.in encode
Language                       : English
Default                        : No
Forced                         : No





SCREENSHOT









Keep Visit DesireMoVies.SiTe For More Exusive MoVies



Download The 100 S01 E11 720p Blu-Ray Dual Audio [HIndi-English] x264 DesireMovies.Site torrent


Related Torrents


Comments   (please login to add your comment!)


Home - Browse Torrents

Made with love by an Extratorrent Fan!