extratorrent - A Fan Made Alternative Login   |   Register
Important Information
Registrations are open now
-------------------------------------

Please click here to register with Extratorrent2 to recieve latest updates, add bookmarks and to post comments.

Friends
Friends

1) ProxyFix

Extratorrent2 > Categories > Movies > Letters to Santa 2 2015 [Blu-ray 720p HEVC x265 6CH ENG Subs] - Venom torrent


Browse Movies torrents

Letters to Santa 2 2015 [Blu-ray 720p HEVC x265 6CH ENG Subs] - Venom torrent


Download torrent: Download Letters to Santa 2 2015 [Blu-ray 720p HEVC x265 6CH ENG Subs] - Venom torrent Magnet link Bookmark Torrent: Letters to Santa 2 2015 [Blu-ray 720p HEVC x265 6CH ENG Subs] - Venom   Letters to Santa 2 2015 [Blu-ray 720p HEVC x265 6CH ENG Subs] - Venom torrent
Info hash: 8AA8DA42CCECE51A5053A5E2E90902F6423FDCA4
Category: Categories > Movies
Trackers:
View all torrent trackers >
Health:
 seeds: 0 ,  leechers: 1 |  Update >
Torrent language: Polish Polish
Total Size: 1.9 GB
Files List:
1    View torrent files >
Uploader:
miszczkurde
Torrent added: June 24, 2018, 5:30 am
Tags: letters, to, m, listy, do, 2015, christmas
Users rating: ---, not rated. please login to rate.

Download Letters to Santa 2 2015 [Blu-ray 720p HEVC x265 6CH ENG Subs] - Venom torrent



Torrent Description



IMDb

Movie Info
Various families experience the ups and downs of their relationships during the Christmas season.

Original title: "Listy do M. 2"
Genre: Comedy, Romance, Christmas
Directed By: Maciej Dejczer
Written By:  Marcin Baczynski, Mariusz Kuczewski
Release date: Nov 2015
Country: Poland
Runtime: 1h 43min
Studio: © 2015 TVN Film

Code:

General
Format: Matroska
File size: 1.90 GiB
Duration: 1 h 43 min
Overall bit rate: 2 636 kb/s

Video
ID: 1
Format: HEVC
Duration: 1 h 43 min
Bit rate: 1 994 kb/s
Width: 1 280 pixels
Height: 528 pixels
Frame rate: 24.000 FPS
Bit depth: 10 bits
Stream size: 1.44 GiB (76%)
Language: Polish
Default: Yes

Audio
ID: 2
Format: AC-3
Duration: 1 h 43 min
Bit rate: 640 kb/s
Channel(s): 6 channels
Channel positions: Front: L C R, Side: L R, LFE
Sampling rate: 48.0 kHz
Stream size: 473 MiB (24%)
Language: Polish
Default: Yes

Text #1
ID: 3
Format: UTF-8
Language: English
Default: Yes

Text #2
ID: 4
Format: UTF-8
Language: Ukrainian
Default: No

Text #3
ID: 5
No subtitles
Default: No



Screenshots: (To download images, click image. Right click and select 'save image as...')











Download Letters to Santa 2 2015 [Blu-ray 720p HEVC x265 6CH ENG Subs] - Venom torrent


Related Torrents


Comments   (please login to add your comment!)

gapeland 1     miko sins     planning     kiara mia anal     judy nero     father john misty pure comedy     bignaturals eloa lombard     720p blu     it happened in brooklyn     maya bijou strokes     the rat patrol     8 mile     lil gaping     private 201     usborne     brattysis     exorcism     nurumassage valentina nappi     bright yts     girls do porn     wesley woods     ita bluworld     calvin harris promises     teacher     


Home - Browse Torrents

Made with love by an Extratorrent Fan!