extratorrent - A Fan Made Alternative Login   |   Register
Important Information
Registrations are open now
-------------------------------------

Please click here to register with Extratorrent2 to recieve latest updates, add bookmarks and to post comments.

Friends
Friends

1) ProxyFix

Extratorrent2 > Categories > Movies > Krishna Gaadi Veera Prema Gaadha (2016) UNCUT 720p Blu-ray x264 Esub [Hindi 2.0 - Telugu 5.1] - 1.6 GB torrent


Browse Movies torrents

Krishna Gaadi Veera Prema Gaadha (2016) UNCUT 720p Blu-ray x264 Esub [Hindi 2.0 - Telugu 5.1] - 1.6 GB torrent


Download torrent: Download Krishna Gaadi Veera Prema Gaadha (2016) UNCUT 720p Blu-ray x264 Esub [Hindi 2.0 - Telugu 5.1] - 1.6 GB torrent Magnet link Bookmark Torrent: Krishna Gaadi Veera Prema Gaadha (2016) UNCUT 720p Blu-ray x264 Esub [Hindi 2.0 - Telugu 5.1] - 1.6 GB   Krishna Gaadi Veera Prema Gaadha (2016) UNCUT 720p Blu-ray x264 Esub [Hindi 2.0 - Telugu 5.1] - 1.6 GB torrent
Info hash: 7392E4AD6832F5A0AF4904AA7AD1BB85E0935F14
Category: Categories > Movies
Trackers:
View all torrent trackers >
Health:
 seeds: 36 ,  leechers: 25 |  Update >
Torrent language: Hindi Hindi
Total Size: 1.6 GB
Files List:
1    View torrent files >
Uploader:
DESIRE123
Torrent added: August 26, 2018, 5:31 pm
Users rating: ---, not rated. please login to rate.

Download Krishna Gaadi Veera Prema Gaadha (2016) UNCUT 720p Blu-ray x264 Esub [Hindi 2.0 - Telugu 5.1] - 1.6 GB torrent



Torrent Description

Krishna Gaadi Veera Prema Gaadha (2016) UNCUT 720p Blu-ray x264 Esub [Hindi 2.0 - Telugu 5.1]


UPLOAD BY DesireMoVies.trade


Krishna Gaadi Veera Prema Gaadha (2016)


SAMPLE


POSTER



INFO


General
Format : Matroska
Format version : Version 4 / Version 2
File size : 1.62 GiB
Duration : 2 h 25 min
Overall bit rate : 1 599 kb/s

Video
ID : 1
Format : AVC
Format/Info : Advanced Video Codec
Format profile :
Format settings : CABAC / 4 Ref Frames
Format settings, CABAC : Yes
Format settings, ReFrames : 4 frames
Codec ID : V_MPEG4/ISO/AVC
Duration : 2 h 25 min
Bit rate : 1 277 kb/s
Width : 1 280 pixels
Height : 544 pixels
Display aspect ratio : 2.35:1
Frame rate mode : Constant
Frame rate : 24.000 FPS
Color space : YUV
Chroma subsampling : 4:2:0

Audio #1
ID : 2
Format : AC-3
Format/Info : Audio Coding 3
Commercial name : Dolby Digital
Codec ID : A_AC3
Duration : 2 h 25 min
Bit rate mode : Constant
Bit rate : 160 kb/s
Channel(s) : 2 channels
Channel positions : Front: L R
Sampling rate : 48.0 kHz
Frame rate : 31.250 FPS (1536 SPF)
Bit depth : 16 bits
Compression mode : Lossy
Delay relative to video : 78 ms
Stream size : 166 MiB (10%)
Title : DesireMovies.trade - Hindi
Language : Hindi
Service kind : Complete Main
Default : Yes
Forced : Yes

Audio #2
ID : 3
Format : AC-3
Format/Info : Audio Coding 3
Commercial name : Dolby Digital
Codec ID : A_AC3
Duration : 2 h 25 min
Bit rate mode : Constant
Bit rate : 160 kb/s
Channel(s) : 6 channels
Channel positions : Front: L C R, Side: L R, LFE
Sampling rate : 44.1 kHz
Frame rate : 28.711 FPS (1536 SPF)
Bit depth : 16 bits
Compression mode : Lossy
Stream size : 166 MiB (10%)
Title : DesireMovies.trade
Language : Telugu
Service kind : Complete Main
Default : No
Forced : Yes

Text
ID : 4
Format : UTF-8
Codec ID : S_TEXT/UTF8
Codec ID/Info : UTF-8 Plain Text
Duration : 2 h 21 min
Bit rate : 64 b/s
Count of elements : 2209
Stream size : 67.0 KiB (0%)
Title : DesireMovies.trade
Language : English
Default : No
Forced : No


SCREENSHOT



Keep Visit DesireMoVies.trade For More Exusive MoVies



Download Krishna Gaadi Veera Prema Gaadha (2016) UNCUT 720p Blu-ray x264 Esub [Hindi 2.0 - Telugu 5.1] - 1.6 GB torrent


Related Torrents


Comments   (please login to add your comment!)

first anal 4     land     gregory porter nat king cole     d 2004     yes     colombian     720p blu     hindi web series     open water     cars 3     shetland s04e01     kasperky     sakurai     cute pepper     vintage     private xtreme     linda weasley katti gold     bay     nerve hindi     uma jolie pawn     never squirted before     indian busty     iron man 720p dual audio     med     


Home - Browse Torrents

Made with love by an Extratorrent Fan!