extratorrent - A Fan Made Alternative Login   |   Register
Important Information
Registrations are open now
-------------------------------------

Please click here to register with Extratorrent2 to recieve latest updates, add bookmarks and to post comments.

Friends
Friends

1) ProxyFix

Extratorrent2 > Categories > Movies > Arthur and the Invisibles (2006) UNCUT 720p Blu-Ray x264 Esub [Dual Audio] [Hindi DD 2.0 - English 2.0] - 1.2 GB torrent


Browse Movies torrents

Arthur and the Invisibles (2006) UNCUT 720p Blu-Ray x264 Esub [Dual Audio] [Hindi DD 2.0 - English 2.0] - 1.2 GB torrent


Download torrent: Download Arthur and the Invisibles (2006) UNCUT 720p Blu-Ray x264 Esub [Dual Audio] [Hindi DD 2.0 - English 2.0] - 1.2 GB torrent Magnet link Bookmark Torrent: Arthur and the Invisibles (2006) UNCUT 720p Blu-Ray x264 Esub [Dual Audio] [Hindi DD 2.0 - English 2.0] - 1.2 GB   Arthur and the Invisibles (2006) UNCUT 720p Blu-Ray x264 Esub [Dual Audio] [Hindi DD 2.0 - English 2.0] - 1.2 GB torrent
Info hash: 3B7C2BF1FB53FE382A359FA45F093BE878568C8A
Category: Categories > Movies
Trackers:
View all torrent trackers >
Health:
 seeds: 65 ,  leechers: 28 |  Update >
Torrent language: Hindi Hindi
Total Size: 1.2 GB
Files List:
1    View torrent files >
Uploader:
DESIRE123
Torrent added: October 9, 2018, 4:09 am
Users rating: ---, not rated. please login to rate.

Download Arthur and the Invisibles (2006) UNCUT 720p Blu-Ray x264 Esub [Dual Audio] [Hindi DD 2.0 - English 2.0] - 1.2 GB torrent



Torrent Description

Arthur and the Invisibles (2006) UNCUT 720p Blu-Ray x264 Esub [Dual Audio] [Hindi DD 2.0 - English 2.0] - 1.2 GB


EXUSIVE UPLOAD BY DesireMoVies.Win


Arthur and the Minimoys (2006)


MoVie SAMPLE


POSTER



INFO


General
Format : Matroska
Format version : Version 4 / Version 2
File size : 1.15 GiB
Duration : 1 h 43 min
Overall bit rate : 1 589 kb/s

Video
ID : 1
Format : AVC
Format/Info : Advanced Video Codec
Format profile :
Format settings : CABAC / 4 Ref Frames
Format settings, CABAC : Yes
Format settings, ReFrames : 4 frames
Codec ID : V_MPEG4/ISO/AVC
Duration : 1 h 43 min
Bit rate : 1 300 kb/s
Width : 1 280 pixels
Height : 548 pixels
Display aspect ratio : 2.35:1
Frame rate mode : Constant
Frame rate : 23.976 (24000/1001) FPS
Color space : YUV
Chroma subsampling : 4:2:0
Bit depth : 8 bits

Audio #1
ID : 2
Format : AC-3
Format/Info : Audio Coding 3
Commercial name : Dolby Digital
Codec ID : A_AC3
Duration : 1 h 43 min
Bit rate mode : Constant
Bit rate : 224 kb/s
Channel(s) : 2 channels
Channel positions : Front: L R
Sampling rate : 48.0 kHz
Frame rate : 31.250 FPS (1536 SPF)
Bit depth : 16 bits
Compression mode : Lossy
Delay relative to video : -5 ms
Stream size : 166 MiB (14%)
Title : DesireMovies.Win - Hindi
Language : Hindi
Service kind : Complete Main
Default : Yes
Forced : No

Audio #2
ID : 3
Format : AAC
Format/Info : Advanced Audio Codec
Format profile : HE-AAC / LC
Format settings : NBC
Codec ID : A_AAC-5
Duration : 1 h 43 min
Bit rate : 64.0 kb/s
Channel(s) : 2 channels
Channel positions : Front: L R
Sampling rate : 48.0 kHz / 24.0 kHz
Frame rate : 23.438 FPS (1024 SPF)
Compression mode : Lossy
Delay relative to video : -105 ms
Stream size : 47.6 MiB (4%)
Title : Stereo
Language : English
Default : No
Forced : No

Text
ID : 4
Format : UTF-8
Codec ID : S_TEXT/UTF8
Codec ID/Info : UTF-8 Plain Text
Duration : 1 h 34 min
Bit rate : 77 b/s
Count of elements : 1672
Stream size : 53.9 KiB (0%)
Language : English
Default : Yes
Forced : No


SCREENSHOT



Keep Visit DesireMoVies.trade For More Exusive MoVies



Download Arthur and the Invisibles (2006) UNCUT 720p Blu-Ray x264 Esub [Dual Audio] [Hindi DD 2.0 - English 2.0] - 1.2 GB torrent


Related Torrents


Comments   (please login to add your comment!)

lektor 2017     720p blu     my big tits     complete 1     nympho     anikka albrite     word patch     2014 dvdrip     medicine     orange     fakeagent     lucy 2014     brattysis     gandi baat     xxx cuckold     maroc     claudia     anal     cars 3     fitnessrooms lady dee     little lupe     rise     capote     czech amateur 62     


Home - Browse Torrents

Made with love by an Extratorrent Fan!