extratorrent - A Fan Made Alternative Login   |   Register
Important Information
Registrations are open now
-------------------------------------

Please click here to register with Extratorrent2 to recieve latest updates, add bookmarks and to post comments.

Friends
Friends

1) ProxyFix

Extratorrent2 > Categories > Movies > Swades 2004 Hindi 720p Blu-Ray x264 AAC Esub ( TaRa ).mkv torrent


Browse Movies torrents

Swades 2004 Hindi 720p Blu-Ray x264 AAC Esub ( TaRa ).mkv torrent


Download torrent: Download Swades 2004 Hindi 720p Blu-Ray x264 AAC Esub ( TaRa ).mkv torrent Magnet link Bookmark Torrent: Swades 2004 Hindi 720p Blu-Ray x264 AAC Esub ( TaRa ).mkv   Swades 2004 Hindi 720p Blu-Ray x264 AAC Esub ( TaRa ).mkv torrent
Info hash: 1FE701771B9BC868F4F4E7E554D83EA255062BCE
Category: Categories > Movies
Trackers:
View all torrent trackers >
Health:
 seeds: 4 ,  leechers: 8 |  Update >
Torrent language: Hindi Hindi
Total Size: 1.5 GB
Files List:
5    View torrent files >
Uploader:
SkTara
Torrent added: August 24, 2018, 4:17 am
Tags: Swades, 2004, Drama
Users rating: ---, not rated. please login to rate.

Download Swades 2004 Hindi 720p Blu-Ray x264 AAC Esub ( TaRa ).mkv torrent



Torrent Description


Swades 2004 Hindi 720p Blu-Ray x264 AAC Esub ( TaRa ).mkv


===================================================================
General
Complete name :Swades 2004 Hindi 720p Blu-Ray x264 AAC Esub ( TaRa ).mkv
Format : Matroska
Format version : Version 4 / Version 2
File size : 1.50 GiB
Duration : 3h 15mn
Overall bit rate : 1 101 Kbps
===================================================================
Video
ID : 1
Format : AVC
Format/Info : Advanced Video Codec
Format profile :
Format settings, CABAC : Yes
Format settings, ReFrames : 5 frames
Codec ID : V_MPEG4/ISO/AVC
Duration : 3h 15mn
Bit rate : 971 Kbps
Width : 1 280 pixels
Height : 544 pixels
Display aspect ratio : 2.35:1
Frame rate mode : Constant
Frame rate : 24.000 fps
Color space : YUV
Chroma subsampling : 4:2:0
Bit depth : 8 bits
Scan type : Progressive
Bits/(Pixel*Frame) : 0.058
Stream size : 1.32 GiB (88%)
Title : .....::::: TaRa :::::.....
Language : Hindi
Default : Yes
Forced : No
====================================================================
Audio
ID : 2
Format : AAC
Format/Info : Advanced Audio Codec
Format profile : HE-AAC / LC
Codec ID : A_AAC
Duration : 3h 15mn
Bit rate : 128 Kbps
Channel(s) : 2 channels
Channel positions : Front: L R
Sampling rate : 48.0 KHz / 24.0 KHz
Frame rate : 23.438 fps (1024 spf)
Compression mode : Lossy
Delay relative to video : 31ms
Stream size : 179 MiB (12%)
Title : .....::::: TaRa :::::.....
Language : Hindi
Default : Yes
Forced : No
===================================================================
Text
ID : 3
Format : UTF-8
Codec ID : S_TEXT/UTF8
Codec ID/Info : UTF-8 Plain Text
Duration : 3h 10mn
Bit rate : 53 bps
Count of elements : 1953
Stream size : 74.6 KiB (0%)
Title : .....::::: TaRa :::::.....
Language : Hindi
Default : Yes
Forced : No
===================================================================








































Download Swades 2004 Hindi 720p Blu-Ray x264 AAC Esub ( TaRa ).mkv torrent


Related Torrents


Comments   (please login to add your comment!)

tranny banged my wife     happy phirr bhag jayegi     html5 for net developers     cum swallow     zombie island     courtney taylor     everythingbutt     720p blu     shes so cute     web series     quest     blackmail     bfi     18 dual audio     lektor 2017     kaylani     tamilpadam     asterix e cleopatra     kougar     ready     alpha wars     evolve 88     java 8 in action 2014     supergirl s03e06 ettv     


Home - Browse Torrents

Made with love by an Extratorrent Fan!